Airbag (Remastered) (4:43) 02. Rock Band Database. Forum: FLAC (lossles) Format. FILE "Radiohead - 1995 - The Bends (TOCP-8489). NIN and Saul Williams 'do a Radiohead' Yesterday churned out another relatively interesting development in this 'free music for all' period. It is available in multiple formats on that page, including FLAC. > 2007-03-27 19:15 : 73M : Radiohead The Bends. Man I am so happy I did! This album is very good. That's a good one for sure, but IMHO Glasto '97 is the "legendary" show in Radiohead's career. 8MHz/64fs Download FLAC Downloads FLAC 176kHz/24bit Download FLAC 192kHz/24bit Download FLAC 352kHz. Powered By Google Blog Search - Index By Google - Yahoo Blekko View My Radiohead. Pokaż wątki Pokaż posty. I used Cubase to record a few files at 24-bit/88. OK, I Understand. HQ Hip-Hop Blog. See the extras section below for third-party tools that support or use FLAC. Oct - 02 2012. Quality - MP3, 320 kbps CBR / FLAC (Digital Version) *note: CD version sounded muddier and mastered differently than the Digital version. ROBERT GLASPER C OVERED ! Жанр : Contemporary Jazz, Piano Страна-производитель диска : USA Год издания : 2015 Издатель : Blue Note Records Номер по каталогу : B Robert Glasper Trio - Covered - (2015) [FLAC]. 2 kHz and then bounced them down to a stereo WAV. FLAC Frontend, a GUI for the official FLAC tools [$] dBpowerAMP, a swiss army knife that can convert and play many formats, including FLAC. instrumental renditions of radiohead For better download results try avoiding words like extabit uploaded rapidgator netload bitshare freakshare letitbit dizzcloud crack serial keygen etc. 1998 Label: Osmose Productions - OPCD 071 • Format: CD Album • Country: France • Genre: Rock • Style: Death Metal Translate Email Print. All links to albums are provided from other servers and are not affiliated with this website. flac 02 - Deadman DJ - Kicking Your Head In. The first track is a never before released demo from Little Boy Blue & The Blue Boys. OK, I Understand. Marin Marais music Collection MP3 FLAC music download compositions Summary torrent Alcyone , Grand Ballet (2CD), Le Labyrinthe-Pandolfo-EAC(APE&CUE), Les folies d’Espagne The Purcell Quartet. For over a decade, The World's Greatest Audiophile Vocal Recordings has served a View Album. Ryuichi Sakamoto - Complete Index Of Güt download flac Most popular Lee Morgan - The Gigolo Various - Veronica Top 100 - 1999 Nummer 10 The Platters - All-Time Greatest Hits Philomena Begley - The Philomena Begley Collection Nuera - Blow DJ Bobo James a. Radiohead – Rank The Albums. High quality Radiohead MP3 downloads from 7digital United States. Add to Bag FLAC. The world's most predictably unpredictable band, The Flaming Lips, have teamed up with their Oklahoma City brethren, Stardeath And White Dwarfs to record their own unique take of Pink Floyd's 1973 classic album 'The Dark Side Of The Moon,' under the title of The Flaming Lips. Radiohead – A Moon Shaped Pool (2016) [FLAC 24/48]. He blends rock, folk, blues, and classically influenced music into a boundary-defying style that has won. 48 GB (Electronic, alternative rock, indie, radiohead) [LP] [24/96] Thom Yorke / Tomorrow's Modern Boxes - 2014, FLAC (tracks), lossless 783 MB. "Spectre" is a song by the English rock band Radiohead, produced by Nigel Godrich. 15 Step 02. 6 GB (Electronic, alternative rock, indie, radiohead) [LP] [24/192] Thom Yorke / The Eraser - 2006, FLAC (tracks), lossless 1. File formats: FLAC, WAV, MLP, APE, TTA, ALS, etc. Zaawansowane wyszukiwanie. Äänitiedostojen kuunteluohjeet Albumilla on monia kappaleita, jotka Radiohead esitteli vuoden 2006 kiertueellaan, kuten "15 Step", "Bodysnatchers", "All I Need" ja "Videotape". The codec libraries are distributed under Xiph. Tags: Radiohead-OK Computer OKNOTOK 1997 2017, Alternative, Télécharger Radiohead-OK Computer OKNOTOK 1997 2017, Radiohead-OK Computer OKNOTOK 1997 2017 streaming, Télécharger Radiohead-OK Computer OKNOTOK 1997 2017 gratuitement, Radiohead-OK Computer OKNOTOK 1997 2017 gratuit, Radiohead-OK Computer OKNOTOK 1997 2017. 6 GB (Electronic, alternative rock, indie, radiohead) [LP] [24 about good English torrent trackers to add to our index. Chicago Baseball 2003 Consumer Confidence Index Chicago Reader at Forty The animated music video for the first single off of Radiohead's OK digital music, audiophiles, fidelity, FLAC. This recording is dedicated to the people of the Radiohub, a wonderfully generous and dedicated group of Radiohead fans. com to find a video then copy and paste the YouTube video link directly into the search box to convert it. 99 in the U. Display Options: Currently Active Users: Moderators: Showing threads 14631 to 14820 of 72670: 96 (12 members & 84 guests) Moderators : 9. Nie możesz zakładać nowych tematów; Nie możesz pisać wiadomości; Nie możesz dodawać załączników; Nie możesz edytować swoich postów. Oct - 02 2012. Noordhoren (10. The quality is only 128kb, but it's claimed that this was the quality of the recording at source (i. 1 (Remastered). 8MHz/64fs Download FLAC Downloads FLAC 176kHz/24bit Download FLAC 192kHz/24bit Download FLAC 352kHz. Fresh on the heels of his period instrument recording of the complete Beethoven. Previous topic - Next topic. Startas OrkesterStartas Orkester‘'In general I do not like modern music but this I truly enjoyed‘' - Grandma KittyBart van Gemert - drumsThijs van Gemert - double bassFreek Rijna - guitarJorrit Westerhof - guitarHidde Smedinga - pianoMarthe Lasthuis - violinElianne Ardts - celloMaurit van der Lei - vocals 01. When I encode the file with flac. 6MHz/128fs Download DSD (Quad Rate) 11. Download MP3, WAV, FLAC. Category: flac Filho Maravilha (Fio Maravilha) - Jorge Ben Jor* - Novo Millennium - 20 Músicas Para Uma Nova Era 26. 02 Sit Down Stand Up (Snakes And Ladders). Radiohead – The King of Limbs (2011) [7Digital FLAC 24/44,1] April 13, 2017 admin Hi-Res Digital Download. FLAC files are lossless and with a HQ pair of headphones, sound SO MUCH BETTER than streaming and IMO CD's. flac Comments Jul 20, · John Mayall & the Bluesbreakers were a pioneering English blues band, led by singer, songwriter, and multi-instrumentalist John Mayall, mightworkerfedicoifyn. 7 MB + MP3 320 kbps. How can I tell if a flac file comes from an mp3? Started by Purple Orchid, September 05, 2008, 23:07:17. I used Cubase to record a few files at 24-bit/88. Скачать торрент (Alternative Rock, Indie Rock) Radiohead - A Moon Shaped Pool (2016) [FLAC (Tracks+. September 2016 EAC extraction logfile from 21. com/forums/f145/ac-dc-1976-1977-1979-bbc-sessions-flac-pre-fm-190759. It's priced at $11. A video of the group's second headlining show at this year's festival, which took place on April 21 during Coachella's second weekend, has been uploaded. Opções de Buscas. 'Fake Plastic Trees' is taken from 'The Bends' out on XL Recordings. There There 03. OK, I Understand. any upgrade to flac or 320kb won't actually enhance it any further). Catalog #: 7243 5 29590 2 0, 724352959020 Style: Alternative Rock Year: 2000 Format: FLAC (image +. Spectre by Radiohead published on 2015-12-25T11:44:37Z. Double 12" vinyl. Getz-Gilberto 76. The members of Radiohead self-produced the album with Nigel Godrich, an arrangement that the band has used on all of their subsequent albums to date. Radiohead – A Moon Shaped Pool (2016) [FLAC 24/48]. OK, I Understand. 6 GB (Electronic, alternative rock, indie, radiohead) [LP] [24/192] Thom Yorke / The Eraser - 2006, FLAC (tracks), lossless 1. " Seventeen years and countless imitators after the fact, Portishead's debut, Dummy , still sounds as fresh as the day it was released, which is a testament to the album's originality and stark emotional depth. Spectre by Radiohead published on 2015-12-25T11:44:37Z. Feed; Top 100; Mixupload TV; Users; Video; Events; Trending. Made in JP. These demos are not MP3 sourced, as can be seen in the image of the Frequency Analysis and Spectral View done with Cool Edit Pro. King Of Limbs Mediafire - Radiohead King Of Limbs Mediafire (AP) - Radiohead's new album "King of the members" arrived a day earlier. flac 05 - Radiohead - Subterranean Homesick Alien. wav" WAVE TRACK 01 AUDIO TITLE "Planet Telex" ISRC GBAYE9400059 PREGAP 00:00:32 INDEX 01 00:00:00FILE "02 The Bends. It gets Worse / Better (08:31)02. 48 GB (Electronic, alternative rock, indie, radiohead) [LP] [24/96] Thom Yorke / Tomorrow's Modern Boxes - 2014, FLAC (tracks), lossless 783 MB. Filename D:\Ripped Music\Radiohead - OK Computer (1997)\02 Paranoid Android. Download MP3, WAV, FLAC. The band has experienced several line-up changes, with frontman, vocalist, guitarist and principal songwriter Robert Smith being the only constant member. Narzędzia forum. @radiohead: مجموعه تهیه شده توسط ریدیوهد Pyramid Song EP زمان: ۱۸:۰۰ پخش: ۱۶ می ۲۰۰۱ تعداد ترک: ۵ کیفیت: #Flac - @Radiohead - Публикация на Telegram Analytics. Any complete CD albums, whether in multiple files or single file archive (e. Pokaż wątki Pokaż posty. OK Computer is the third studio album by English alternative rock band Radiohead, released in 1997 on EMI subsidiaries Parlophone and Capitol Records. " Seventeen years and countless imitators after the fact, Portishead's debut, Dummy , still sounds as fresh as the day it was released, which is a testament to the album's originality and stark emotional depth. FLAC Torrents - Page 3 Radiohead The Best Of 2CD FLAC the 100 S03 truth about emanuel 2013 Bill Evans Undercurrent ?????R SP5 toaru majutsu no index dahlia. The year 2008 might have been a slightly early point in time to release expanded editions of the first several Radiohead albums, so Capitol greased the reissue pipeline with The Best Of, a 17-track disc with a track list that is as debatable as any other. Rock Band Database. Radiohead - OK Computer OKNOTOK 1997 2017; Arctic Monkeys. By continuing to use Pastebin, you agree to our use of cookies as described in the Cookies Policy. 0 (fades + level adjust)>CD Wave>Traders Little…. It provides a complete object-oriented library for sending and receiving packetized messages via a variety of common data radios and other transports on a range of embedded microprocessors. 703 Greatest 1980's music hit Singles [FLAC] 0. Those all sounded really close to my FLACs. A bootleg CD of a Radiohead concert at the Hammerstein Ballroom, New York, on December 19th 1997. any upgrade to flac or 320kb won't actually enhance it any further). Borderline (3:56) 04. Recent Entries; 1982-10-23 · The Who @ Coliseum, Oakland · ML Archive Master · 7 days ago; 1982-12-03 · The Who @ Astrodome, Houston · ML Archive Master · 7 days ago; 1976-03-20 · Supertramp @ Santa Monica Civic Center, Santa Monica · Alien · 7 days ago; 1987 - 1993 · Nirvana @ -, - · Loose Ends · 7 days ago; 2011-04-15 · Foo Fighters @ Carlisle Airport, Carlisle · Carlisle · 7. to/thebends Director: Jake Scott Producer: Ellen JacobsonCinematography. 59 KB RADIOHEAD Discography PBTHAL vinyl FLAC Torrent Download. I compared some sample songs such as Reckoner from Radiohead's In Rainbows, Everything in Its Right Place from Kid A and Performance from the latest The XX album. frank; Vor 19 Minuten ~ ACHTUNG ~ Alle User, die sich bis einschl. We only index and link to content provided by other sites. Artist: Lowell Hopper Title: Between The Lines Year Of Release: 2016 Label: Lowell Hopper Genre: Smooth Jazz Quality: FLAC (tracks) / m4a True VBR (300-360 kbit/s) / MP3 320 kbps Total Time: 00:58:52 Total Size: 348. wav) > iZotope RX and Ozone (16/44) > Peak Pro XT (edit / index) > xACT 2. FLAC files are lossless and with a HQ pair of headphones, sound SO MUCH BETTER than streaming and IMO CD's. It didn’t work out, but. FLAC Frontend, a GUI for the official FLAC tools [$] dBpowerAMP, a swiss army knife that can convert and play many formats, including FLAC. The full Coachella set is the first in a series of live show videos Radiohead plans to share. These demos are not MP3 sourced, as can be seen in the image of the Frequency Analysis and Spectral View done with Cool Edit Pro. Flacon extracts individual tracks from one big audio file containing the entire album of music and saves them as separate audio files. The recording is a binaural recording intended especially for headphone use. How can I tell if a flac file comes from an mp3? Started by Purple Orchid, September 05, 2008, 23:07:17. Radiohead's first-ever release is made up of four scrappy demos that reimagine the Pixies as moody British schoolboys. To do this, it uses information from the appropriate CUE file. September 2016 EAC extraction logfile from 21. REM REPLAYGAIN TRACK GAIN -. mp3: 26-Jul-2008 19:50 : 1. Music in the format flac, Vinyl rip, Audio-DVD, Dts, a wide variety of genres, styles and directions, from hard rock to classics, new music, hits, as well as collections of popular music as lossless, with rich, deep, and before all good sound. We proudly present the new Masterpiece The Ultimate Disco Funk Collection vol. php?topic=15097. Startas OrkesterStartas Orkester''In general I do not like modern music but this I truly enjoyed'' - Grandma KittyBart van Gemert - drumsThijs van Gemert - double bassFreek Rijna - guitarJorrit Westerhof - guitarHidde Smedinga - pianoMarthe Lasthuis - violinElianne Ardts - celloMaurit van der Lei - vocals 01. It's priced at $11. Mayra Andrade - Manga Musiques du monde Vicky Leandros - Collection (23 albums) Variété allemande Elbow - The Best of (Deluxe) Alternative Lou Doillon - Soliloquy Alternative SKÁLD - Le chant des Vikings Musiques du monde Thylacine - Transsiberian Électronique Thylacine - ROADS, Vol. php?topic=15250. complete and uninterrupted). any upgrade to flac or 320kb won't actually enhance it any further). New features include a state of the art time stretching engine, support for the FLAC audio format, drag and drop sample export, and on-the-fly chopping. View credits, reviews, tracks and shop for the CD release of Brothers Gonna Work It Out on Discogs. After hearing the youtube clips of his solo album, and hearing that 5. FLAC format music albums and tracks download free. 6M: 003) Lynyrd Skynyrd - Freebird. flac 08 - Radiohead - Planet Telex. Add to Bag MP3. But it's obviously the weakest offering in a lineup of really, really good albums. Saul Williams, whose album was produced and mixed by Trent Reznor of Nine Inch Nails, is releasing a new album in a similar way to Radiohead. Electronic. Help with backup storage; get access to the OSSUARY as my 'thank-you'. Oznacz jako przeczytany Zobacz główne forum; Przeszukaj to forum. Category: flac Filho Maravilha (Fio Maravilha) - Jorge Ben Jor* - Novo Millennium - 20 Músicas Para Uma Nova Era 26. Billy Williams - I Never Heard Father Laugh So Much Before / Take Me Where There Are No Eyes Various - Original Oldies Vol. 970 fps / 16:9 / High Profile 4. Killing the blues. Magazine 60 - Rendez-Vous Sur La Costa Del Sol (D. Instant Destiny (3:14) 03. Written-By - Justnyce. / Wie Komm Ich Do Dazu Bob Seger & The Silver Bullet Band - We've Got Tonight Frank Beil - Dreh Dich Um Und Sag Goodbye Herrey's - Crazy People Kathy Troccoli - Kathy. com Password: without a password. FLAC music for free and without tedious registration! Download flac music in lossless quality. Battery Hydra - Beatbox Machinery - A Synth Trilogy. Filename C:\Rips\Various - Radiohead in Jazz (2019) {3365572} [FLAC]\10 - Noorpool Orchestra - Suite- Everything in Its Right Place - Pyramid Song. 01 - Radiohead - Airbag. Container: flac (tracks) Quality: Hi-Fi, lossless audio Sample Rate: 44100 kHz / 16 bit, Stereo Source: Digital download Album Artist/Name: The Temptations / 20th Century Masters: The Millennium Collection: Best Of The Temptations, Vol. 6 GB (Electronic, alternative rock, indie, radiohead) [LP] [24/192] Thom Yorke / The Eraser - 2006, FLAC (tracks), lossless 1. com to find a video then copy and paste the YouTube video link directly into the search box to convert it. Contrary to the band in 2007 pay-what-you-want album In Rainbows, "it has a price. It provides a complete object-oriented library for sending and receiving packetized messages via a variety of common data radios and other transports on a range of embedded microprocessors. It gets Worse / Better (08:31)02. Re: Legal FLAC Download Sites February 02, 2008, 18:33:03 #13 For fans of King Crimson, Robert Fripp & Eno, Adrian Belew live recordings - there's some independent music company called "DGM live" born from the ruins of EG Music Group. The year 2008 might have been a slightly early point in time to release expanded editions of the first several Radiohead albums, so Capitol greased the reissue pipeline with The Best Of, a 17-track disc with a track list that is as debatable as any other. Lisäksi "Arpeggi" ja "Open. com news section, which means you'll be the first to know when there's something new in the Radiohead. Although it concentrates on the best bootlegs I have downloaded in the last five years, the same sites and addresses used are where the bootlegs in the 100 greatest listing originated from. By continuing to use Pastebin, you agree to our use of cookies as described in the Cookies Policy. The first track is a never before released demo from Little Boy Blue & The Blue Boys. Cue), Lossless] с торрент трекера underver. William Hunt, Les Folies d’Espagne (Ens. The best version that I have found is this one, which appears to be pre-fm (i. Quality - MP3, 320 kbps CBR / FLAC (Digital Version) *note: CD version sounded muddier and mastered differently than the Digital version. 6MHz/128fs Download DSD (Quad Rate) 11. 1 Électronique Charlotte Gainsbourg - Take 2 Alternative LP - Heart to Mouth. Ryuichi Sakamoto - Complete Index Of Güt download flac Most popular Lee Morgan - The Gigolo Various - Veronica Top 100 - 1999 Nummer 10 The Platters - All-Time Greatest Hits Philomena Begley - The Philomena Begley Collection Nuera - Blow DJ Bobo James a. A real example. Radiohead self-released their ninth album, A Moon Shaped Pool, in May 2016, backed by the singles "Burn the Witch" and "Daydreaming". Radiohead - Discography 1992-2017 [FLAC] 81. Therefore, it has been removed in favor of the digital version. Chicago Baseball 2003 Consumer Confidence Index Chicago Reader at Forty The animated music video for the first single off of Radiohead's OK digital music, audiophiles, fidelity, FLAC. Any complete CD albums, whether in multiple files or single file archive (e. The 225 best bootlegs available via download, 2015-19 5 years - 130 different artists The posts #1 to #100 were mostly made from downloads prior to 2015. Index; wenis. Diejenigen, die sich danach auf der NOX-Hauptseite registriert haben und sich nun einloggen möchten, werden darauf hingewiesen, dass Main und Forum keine vereinheitlichte Benutzerdatenbank haben. Corban Dallas. 1 (Remastered). 2020 intmusic. Man I am so happy I did! This album is very good. Last of the Arkive series. The members of Radiohead self-produced the album with Nigel Godrich, an arrangement that the band has used on all of their subsequent albums to date. Artist: Lowell Hopper Title: Between The Lines Year Of Release: 2016 Label: Lowell Hopper Genre: Smooth Jazz Quality: FLAC (tracks) / m4a True VBR (300-360 kbit/s) / MP3 320 kbps Total Time: 00:58:52 Total Size: 348. Previous topic - Next topic. 1: Beck, Gluck, Haydn, Jommelli, Traetta The Mozartists & Ian Page Genre: Classical. Guns and Horses 02. Comments Off on Jerry Vale – Sings 16 Greatest Hits of the 60’s (1970/2018) [FLAC 24bit/96kHz] Hi-Res Digital Download Jeremy Udden – Three In Paris (2019) [FLAC 24bit/96kHz]. Under the Sheets 05. 0 % Test CRC 4C913462 Copy CRC 4C913462 Accurately ripped (confidence 153) [CFF8E6ED] (AR v2) Copy OK Track 3 Filename D:\Ripped Music\Radiohead - OK Computer (1997)\03 Subterranean Homesick Alien. Protocol for the SHN to FLAC transfer is included. DTI redefines drug toxicity, identifies hepatotoxic drugs, gives mechanistic insights, predicts clinical outcomes and has potential as a screening tool. mp3: 26-Jul-2008 19:49 : 9. Man I am so happy I did! This album is very good. It is priced at £8. Notes: Incomplete FM broadcast * Lineage: "Performance" bootleg (The Swingin' Pig / TSP CD 090 2) -> EAC FLAC (supposedly secure mode; not my rip) -> sped up 1. This is a complete alphabetical list, as of December 2016. mp3 Radiohead - A Moon Shaped Pool - Radiohead 2016. flac Notifications Language English. This WAV file won't play in Windows Media Player but will play in Foobar. 0099 files_checked: 12 files_ignored: 0 files_with_gaps: 4 - 01-radiohead-airbag. Optimize the storage of media files on fixed-size storage volumes. Electronic. These demos are not MP3 sourced, as can be seen in the image of the Frequency Analysis and Spectral View done with Cool Edit Pro. flac 03 - Deadman DJ - [email protected] Ellie Goulding - Bright Lights FLAC | 442. As ji eff posted above, I hear Beck and Radiohead influences. He is best known for being part of Fila Brazillia. i already own all radiohead's cds i just figured it would take less time for me to dl something than to pop each cd in and convert. i did not convert it myself i just downloaded it. According to the Intra-Party Democracy Index developed by the Israel Democracy Institute, which examines various aspects of parties' internal functioning, in the past three election campaigns, Labor was ranked as the most democratic among all the parties. We only index and link to content provided by other sites. 1 flac was going to be released as a "bonus", I was intrigued enough to pre-order the album. It is priced at £8. This is the band in its teething, Brit-alt. FLAC (tracks), Lossless | 7:06:20 | 2,8 Gb 90s, Dance, Pop, Hip Hop Tracklist: [04:01] NaN. Borderline (3:56) 04. 67 GB Radiohead Complete Studio Discography [FLAC] 2. But the band internalized that epic sweep, turning it inside out to tell tortured, twisted tales of angst and alienation. We only index and link to content provided by other sites. infoinfo used the band name between and '67 then dropped it for some fifteen years, but in a 'Return of the Bluesbreakers' was announced and the name began to be. 00b: October 5 2013 at 22:55: Abba-Golden_Greatest_Hits-CDM-2006-LOSSLESS-JVL: 0. These demos are not MP3 sourced, as can be seen in the image of the Frequency Analysis and Spectral View done with Cool Edit Pro. 8MHz/64fs Download DSD Multichannel 2. cue file that should be included in the download. 7 MB + MP3 320 kbps. Flacon is an intuitive open-source GUI that does exactly that: split a FLAC with a CUE. Payment Security We take the security of our website and of your transactions extremely seriously. Those all sounded really close to my FLACs. Radiohead announced the release of album on Monday, saying it would be Saturday. 0099 files_checked: 12 files_ignored: 0 files_with_gaps: 4 - 01-radiohead-airbag. OK, I Understand. What's crazy is how many not just unreleased, but never-heard-of-before tracks are apparently in here. Magazine 60 - Rendez-Vous Sur La Costa Del Sol (D. Opções de Buscas. Radiohead wrote the song, an orchestral ballad, for the 2015 James Bond film Spectre, but it was rejected by the film producers. Leaked Release - June 23, 2017 Genre - Alternative Rock Quality - MP3, 320 kbps CBR / FLAC Tracklist: I 01. All links to albums are provided from other servers and are not affiliated with this website. Marin Marais music Collection MP3 FLAC music download compositions Summary torrent Alcyone , Grand Ballet (2CD), Le Labyrinthe-Pandolfo-EAC(APE&CUE), Les folies d’Espagne The Purcell Quartet. 48 GB (Electronic, alternative rock, indie, radiohead) [LP] [24/96] Thom Yorke / Tomorrow's Modern Boxes - 2014, FLAC (tracks), lossless 783 MB. 2M: 002) Van Halen - Eruption. Paranoid Android (06:23). The 225 best bootlegs available via download, 2015-19 5 years - 130 different artists The posts #1 to #100 were mostly made from downloads prior to 2015. flac 04 - Deadman DJ - System Check. 1 wav file > Soundforge > CDWave (tracking) > Flac Frontend (level 7, align sector boundaries) > flac. FILE "Radiohead - 1995 - The Bends (TOCP-8489). The year 2008 might have been a slightly early point in time to release expanded editions of the first several Radiohead albums, so Capitol greased the reissue pipeline with The Best Of, a 17-track disc with a track list that is as debatable as any other. Radiohead - Discography 1992-2017 [FLAC] 81. Arguably the closet thing to an "epic" produced during the Post-Punk era and widely regarded as The Cure's masterpiece, Disintegration was, paradoxically, both a huge commercial success (rare at the time for an "alternative" record) and a dark, introspective ode to ambivalent love and bittersweet despair. The first in a series of remixes on 12" vinyl will be released on Monday 4th July (or Tuesday in the US & Canada). Recent Entries; 2017-10-10 · Roger Waters @ Canadian Tire Centre, Ottawa · Canadian Tire Centre · 2 days ago; 2005-09-12 · Oasis @ Hollywood Bowl, Los Angeles · Hollywood Bow. Corban Dallas. Ellie Goulding - Bright Lights FLAC | 442. Steve Cobby is a British producer musician, composer, and DJ, based in Kingston upon Hull, Yorkshire. The 11 track album on two heavyweight 12" vinyl records. 0 brings you a versatile Radiohead Widget with the power to show you the latest headlines from the ateaseweb. Links to nearly 50 FLAC quality Rap albums (mostly, some other genres). > 2007-03-27 19:15 : 73M : Radiohead The Bends. – Burrito Deluxe (1970) {2020, Remastered, Hi-Res SACD Rip} SACD Rip | ISO / DSD / 1bit / 2. Index of ftp://89. flac 03 - Radiohead - The Bends. Radiohead - Discography 1992-2017 [FLAC] 81. As ji eff posted above, I hear Beck and Radiohead influences. well i've listended to Radiohead: Idioteque and Pyramid Song like 4 times each today and Placebo: My sweet prince like 2 times. It's priced at $11. php?topic=15097. Äänitiedostojen kuunteluohjeet "House of Cards" Kappaleessa "House of Cards" Radiohead on siirtynyt kohti perinteisiä rakkausballadeja mutta säilyttänyt samalla elektronisen tyylin. 8224MHz | FLAC Tracks / 24bit / 88. Radiohead - Discography [7 Albums - 9 EPs & Other] [320kbps] 1. Arguably the closet thing to an "epic" produced during the Post-Punk era and widely regarded as The Cure's masterpiece, Disintegration was, paradoxically, both a huge commercial success (rare at the time for an "alternative" record) and a dark, introspective ode to ambivalent love and bittersweet despair. The recording is a binaural recording intended especially for headphone use. 00b: October 5 2013 at 23:05: Enrique Iglesias - Greatest Hits (2008) [EAC] [FLAC] 0. Land Of Talk - The Man Who Breaks Things flac album download free. Bandwidth and storage costs are getting smaller for online stores as those stores grow and better leverage server infrastructure. 6 GB (Electronic, alternative rock, indie, radiohead) [LP] [24 about good English torrent trackers to add to our index. wav) > iZotope RX and Ozone (16/44) > Peak Pro XT (edit / index) > xACT 2. Artist: Lowell Hopper Title: Between The Lines Year Of Release: 2016 Label: Lowell Hopper Genre: Smooth Jazz Quality: FLAC (tracks) / m4a True VBR (300-360 kbit/s) / MP3 320 kbps Total Time: 00:58:52 Total Size: 348. Land Of Talk - The Man Who Breaks Things flac album download free. Rock Band Database. wav" WAVE TRACK 02 AUDIO TITLE "The Bends" ISRC GBAYE9400054 INDEX 00 04:19:13 INDEX 01 00:00:00FILE. I used Cubase to record a few files at 24-bit/88. The recording is a binaural recording intended especially for headphone use. The Writer 06. Artist: Lowell Hopper Title: Between The Lines Year Of Release: 2016 Label: Lowell Hopper Genre: Smooth Jazz Quality: FLAC (tracks) / m4a True VBR (300-360 kbit/s) / MP3 320 kbps Total Time: 00:58:52 Total Size: 348. wav" WAVE TRACK 01 AUDIO TITLE "Planet Telex" ISRC GBAYE9400059 PREGAP 00:00:32 INDEX 01 00:00:00FILE "02 The Bends. Artist: Braids Title: Deep In the Iris Year Of Release: 2015 Label: Arbutus Records Genre: Pop/Rock, Rock Alternative & Indie Quality: MP3 320 kbps / FLAC (tracks) Total Time: 00:41:28 Total Size: 103. Ranking: Every Radiohead Album From Worst to Best A complete, unironic dissection of the band's entire discography. A bootleg CD of a Radiohead concert at the Hammerstein Ballroom, New York, on December 19th 1997. Various - WEA Été 85 flac download. cue) Bitrate: lossless Covers: full (600 DPI) Amount of tracks: 10 Size ZIP: ~ 504 mb Upload: nitroflare. 00b: October 5 2013 at 23:02: Enigma - Discography [Flac] 0. Ryuichi Sakamoto - Complete Index Of Güt download flac Most popular Lee Morgan - The Gigolo Various - Veronica Top 100 - 1999 Nummer 10 The Platters - All-Time Greatest Hits Philomena Begley - The Philomena Begley Collection Nuera - Blow DJ Bobo James a. Thom Yorke [Radiohead] - Anima (2019) Rozpoczęty przez. In June 2017, Radiohead and XL released a twentieth-anniversary OK Computer reissue, OK Computer OKNOTOK 1997 2017 , including unreleased tracks, [10] two of which were released as download singles: " I Promise. 0099 files_checked: 12 files_ignored: 0 files_with_gaps: 4 - 01-radiohead-airbag. Скачать торрент (Alternative Rock, Indie Rock) Radiohead - A Moon Shaped Pool (2016) [FLAC (Tracks+. 2M: 002) Van Halen - Eruption. flac - 04-radiohead-exit_music_ (for_a_film). com - Are you looking for RADIOHEAD - HIGH & DRYDrum Sheet Music Score? Are you looking for Drum Sheet Music Free to play your drum music? Click here and Download Now! RADIOHEAD - HIGH & DRYDrum Sheet Music, so you can begin to enjoy the best of your music, keep reading to find out all this and more!. Somewhat loud. (IEM FLAC) Sydney Entertainment Centre media type: FLAC source: IEM > Sony PCM-D50 @24/48 > GoldWave - mono to stereo > CD Wave - tra. any upgrade to flac or 320kb won't actually enhance it any further). Issued in two double-disc releases, The Alchemy Index, Vols. flac Comments Jul 20, · John Mayall & the Bluesbreakers were a pioneering English blues band, led by singer, songwriter, and multi-instrumentalist John Mayall, mightworkerfedicoifyn. 0 Members and 2 Guests are viewing this topic. Man I am so happy I did! This album is very good. The first track is a never before released demo from Little Boy Blue & The Blue Boys. By continuing to use Pastebin, you agree to our use of cookies as described in the Cookies Policy. Chicago Baseball 2003 Consumer Confidence Index Chicago Reader at Forty The animated music video for the first single off of Radiohead's OK digital music, audiophiles, fidelity, FLAC. Radiohead - Discography [7 Albums - 9 EPs & Other] [320kbps] 1. All links. exe, it gives the. wav) > iZotope RX and Ozone (16/44) > Peak Pro XT (edit / index) > xACT 2. Considering the limitations of this dose-response concept, a novel Drug Toxicity Index (DTI) has been proposed recently. OK, I Understand. High quality Radiohead MP3 downloads from 7digital United States. Sturm und Drang, Vol. Last of the Arkive series. Corban Dallas. Airbag (Remastered) (4:43) 02. OK Computer is the third studio album by English alternative rock band Radiohead, released in 1997 on EMI subsidiaries Parlophone and Capitol Records. When I encode the file with flac. It's priced at $11. 16, Zanzabar Louisville, Kentucky Zoom H1 - AT834 - Cardoid Mics - WAV 24/48 - Tracksplitting & Fading w/ Audacity - FLAC. TS -> MPEG Streamclip -> 6 mono WAV FIles -> Wave Wizard -> 6-channel WAV File (L,R,C,LFE,LS,RS) -> Foobar 2000 (5. com to find a video then copy and paste the YouTube video link directly into the search box to convert it. Ellie Goulding - Bright Lights FLAC | 442. Radiohead - Discography [7 Albums - 9 EPs & Other] [320kbps] 1. 6 GB (Electronic, alternative rock, indie, radiohead) [LP] [24/192] Thom Yorke / The Eraser - 2006, FLAC (tracks), lossless 1. As ji eff posted above, I hear Beck and Radiohead influences. Radiohead King of Limbs Mediafire - Download Radiohead King of Limbs Mediafire. flac 26 MB 03 Sail to the Moon (Brush the Cobwebs Out of the Sky). most 128 Kbps are mixed to roll off sub 40 Hz and above 12 Khz, to make best use of the bits. 0 Radiohead News Widget 1. com - Are you looking for RADIOHEAD - HIGH & DRYDrum Sheet Music Score? Are you looking for Drum Sheet Music Free to play your drum music? Click here and Download Now! RADIOHEAD - HIGH & DRYDrum Sheet Music, so you can begin to enjoy the best of your music, keep reading to find out all this and more!. 48 GB (Electronic, alternative rock, indie, radiohead) [LP] [24/96] Thom Yorke / Tomorrow's Modern Boxes - 2014, FLAC (tracks), lossless 783 MB. 2020 by Fezshura flac Comments. flac 02 - Radiohead - Karma Police. That's a good one for sure, but IMHO Glasto '97 is the "legendary" show in Radiohead's career. Index of /Music/Books Name Last modified Size Description : Parent Directory - Coldpaly - A Rush of. Although it concentrates on the best bootlegs I have downloaded in the last five years, the same sites and addresses used are where the bootlegs in the 100 greatest listing originated from. Radiohead's first full-length work is not a bad album. Thom Yorke discovers his defining whine in "Prove. any upgrade to flac or 320kb won't actually enhance it any further). Artist: Lowell Hopper Title: Between The Lines Year Of Release: 2016 Label: Lowell Hopper Genre: Smooth Jazz Quality: FLAC (tracks) / m4a True VBR (300-360 kbit/s) / MP3 320 kbps Total Time: 00:58:52 Total Size: 348. Filetype: Você pode procurar por arquivos especificos do seguinte modo :. 0 % Test CRC 4C913462 Copy CRC 4C913462 Accurately ripped (confidence 153) [CFF8E6ED] (AR v2) Copy OK Track 3 Filename D:\Ripped Music\Radiohead - OK Computer (1997)\03 Subterranean Homesick Alien. Forum: FLAC (lossles) Format. Filename C:\Rips\Various - Radiohead in Jazz (2019) {3365572} [FLAC]\10 - Noorpool Orchestra - Suite- Everything in Its Right Place - Pyramid Song. So here is the Palladia audio, properly downmixed this time. 6 GB (Electronic, alternative rock, indie, radiohead) [LP] [24/192] Thom Yorke / The Eraser - 2006, FLAC (tracks), lossless 1. 8 dB REM REPLAYGAIN TRACK PEAK. The Cure 1981 Uni Mensa Morgenstern, Tubingen, Germany Set : 1. Radiohead fans can now watch one of two of the band's recent Coachella sets. I guess there's no reason for Thom's bedroom demos to otherwise get out if the rest of the band never worked on them, but makes you wonder just how much stuff not just the band has left in the vault but Thom alone. Feed; Top 100; Mixupload TV; Users; Video; Events; Trending. 0099 files_checked: 12 files_ignored: 0 files_with_gaps: 4 - 01-radiohead-airbag. 2017 registriert haben, können sich mit den ihnen bekannten Zugangsdaten einloggen. wav Peak level 98. Radiohead's new album, "A Moon Shaped Pool," is available with high-resolution 24-bit files. Special Remix) flac download. Land Of Talk - The Man Who Breaks Things flac album download free. MusicZeit - download platform + customer support is great + 30 days time to download 3 times. Musicians and groups are listed by the names they use on their records (first names first). 6MHz/128fs Download DSD (Quad Rate) 11. Re: New Radiohead album - The King of Limbs - Online Release 2/19/11 « Reply #13 on: February 18, 2011, 03:35:40 PM » Quote from: lukebourassa on February 18, 2011, 03:23:09 PM. However, when I convert it to FLAC, it won't play in anything. 1: Beck, Gluck, Haydn, Jommelli, Traetta The Mozartists & Ian Page Genre: Classical. 00b: October 5 2013 at 22:55: A-Ha - The Singles 1984-2004 (Flac) 0. flac - 04-radiohead-exit_music_ (for_a_film). 48 GB (Electronic, alternative rock, indie, radiohead) [LP] [24/96] Thom Yorke / Tomorrow's Modern Boxes - 2014, FLAC (tracks), lossless 783 MB. The band has experienced several line-up changes, with frontman, vocalist, guitarist and principal songwriter Robert Smith being the only constant member. Yes we were. Radiohead - Discography 1992-2017 [FLAC] 81. Optimize the storage of media files on fixed-size storage volumes. 99 in the UK and $11. Protocol for the SHN to FLAC transfer is included. 65 GB Radiohead - OK Computer: OKNOTOK 1997-2017 (2017) [24-96 FLAC] 1. Noordhoren (10. 0 Radiohead News Widget 1. George Michael - Freedom. 00b: October 5 2013 at 23:06. Corban Dallas. any upgrade to flac or 320kb won't actually enhance it any further). Any complete CD albums, whether in multiple files or single file archive (e. Opções de Buscas. One More Year (5:19) 02. TS –> MPEG Streamclip –> 6 mono WAV FIles –> Wave Wizard –> 6-channel WAV File (L,R,C,LFE,LS,RS) –> Foobar 2000 (5. There There 03. com-The HDtracks Team. Previous topic - Next topic. Radiohead - Rank The Albums. Now you ask me just to leave you To go out on my own And get what I need to You want me to find what I've already had. (Radiohead) For many listeners, a new Radiohead album means gluing on headphones and absorbing the full. Quality - MP3, 320 kbps CBR / FLAC (Digital Version) *note: CD version sounded muddier and mastered differently than the Digital version. Drill EP (1992). Instead, Radiohead released it as a free download on 25 December 2015, their first release. How can I tell if a flac file comes from an mp3? Started by Purple Orchid, September 05, 2008, 23:07:17. infoinfo used the band name between and '67 then dropped it for some fifteen years, but in a 'Return of the Bluesbreakers' was announced and the name began to be. Download free Radiohead - Live 2002 July 31 st 2002, Teatro Kursaal, San Sebastian,Spain flac album. 0 % Extraction speed 4. 2020 Voodooshakar. By Talia Soghomonian. 0 (fades + level adjust)>CD Wave>Traders Little…. The full Coachella set is the first in a series of live show videos Radiohead plans to share. Visit radioheadlive. 0 brings you a versatile Radiohead Widget with the power to show you the latest headlines from the ateaseweb. Yes we were. DTI redefines drug toxicity, identifies hepatotoxic drugs, gives mechanistic insights, predicts clinical outcomes and has potential as a screening tool. 00b: October 5 2013 at 22:55: Aerosmith - Greatest Hits - Flac. Feed; Top 100; Mixupload TV; Users; Video; Events; Trending. A slew of new material arrived in 2007 and 2008, including a four-disc conceptual project entitled The Alchemy Index. It is priced at £8. @radiohead: مجموعه تهیه شده توسط ریدیوهد Pyramid Song EP زمان: ۱۸:۰۰ پخش: ۱۶ می ۲۰۰۱ تعداد ترک: ۵ کیفیت: #Flac - @Radiohead - Публикация на Telegram Analytics. 00b: October 5 2013 at 23:05: Enya - Only Time Collection. 13 beta -> FLAC level 8. #1: Music : The Ventures - Play The Greatest Instrumental Hits Of All Time Vol. Parent Directory - 001) Led Zeppelin - Stairway to Heaven. The year 2008 might have been a slightly early point in time to release expanded editions of the first several Radiohead albums, so Capitol greased the reissue pipeline with The Best Of, a 17-track disc with a track list that is as debatable as any other. Steve Cobby is a British producer musician, composer, and DJ, based in Kingston upon Hull, Yorkshire. Our US store remains open. Radiohead - The King Of Limbs Radiohead auf CD kaufen. Jay-Z And Kanye West-Watch The Throne-Deluxe Edition-CD-FLAC-2011-PERFECT Groups: alt. recorded and edited by nyctaper 2006-06-14. exe, it gives the. Spectre by Radiohead published on 2015-12-25T11:44:37Z. flac 08 - Radiohead - Planet Telex. Bach: The Cello Sui Matt Haimovitz. Parent Directory - 001) Led Zeppelin - Stairway to Heaven. flac files), and AAC files in QuickTime containers (. Index of /Music/Books Name Last modified Size Description : Parent Directory - Coldpaly - A Rush of. The quality is only 128kb, but it's claimed that this was the quality of the recording at source (i. OK, I Understand. a guest Jan 20th, 2013 135 Never Not a member of Pastebin yet? Sign Up, it unlocks many cool features! raw download clone embed report print text 3. Thom Yorke discovers his defining whine in "Prove. 8224MHz | FLAC Tracks / 24bit / 88. Limited edition cassette in black shell, comes in a blue case & a double-sided printed 2-panel j-card. "Need Your Loving Tonight" is a song by the band Queen and written by bassist John Deacon. A real example. zip : 314,27 MB…. Protocol for the SHN to FLAC transfer is included. @radiohead: مجموعه تهیه شده توسط ریدیوهد Pyramid Song EP زمان: ۱۸:۰۰ پخش: ۱۶ می ۲۰۰۱ تعداد ترک: ۵ کیفیت: #Flac - @Radiohead - Публикация на Telegram Analytics. Display Options: Currently Active Users: Moderators: Showing threads 14631 to 14820 of 72670: 96 (12 members & 84 guests) Moderators : 9. Filetype: Você pode procurar por arquivos especificos do seguinte modo :. Paranoid Android (Remastered) (6:23). 00b: October 5 2013 at 22:55: Ace. Discover music on Discogs, the largest online music database. 00b: October 5 2013 at 23:05: Enya - Only Time Collection. Radiohead's debut album, Pablo Honey, is a promising collection that blends U2's anthemic rock with long, atmospheric instrumental passages and an enthralling triple-guitar attack that is alternately gentle and bracingly noisy. The band has experienced several line-up changes, with frontman, vocalist, guitarist and principal songwriter Robert Smith being the only constant member. wav) > iZotope RX and Ozone (16/44) > Peak Pro XT (edit / index) > xACT 2. 0 (24/96 capture to. CUE REM GENRE "Alternative Rock"REM DATE 1995REM DISCID B00B670CREM COMMENT "ExactAudioCopy v1. Yes we were. free download Cage - Radiohead (VLS) (1997) (FLAC + 320 kbps) rar. 18+ hours of leaked OK Computer-era Radiohead tracks being teased online. 0099 files_checked: 12 files_ignored: 0 files_with_gaps: 4 - 01-radiohead-airbag. 1-2 focused on the elements of fire and water, while The Alchemy Index, Vols. by Dan Caffrey,Nina Corcoran and Wren Graves. Pablo Honey. 1 / 48 kHz / 4450 kbps / 24-bit (DTS Core: 5. Electronic. mp3 Radiohead - A Moon Shaped Pool - Radiohead 2016. Amii Stewart & Deon Estus - My Guy My Girl flac download. TS –> MPEG Streamclip –> 6 mono WAV FIles –> Wave Wizard –> 6-channel WAV File (L,R,C,LFE,LS,RS) –> Foobar 2000 (5. The 11 track album on two heavyweight 12" vinyl records. TS -> MPEG Streamclip -> 6 mono WAV FIles -> Wave Wizard -> 6-channel WAV File (L,R,C,LFE,LS,RS) -> Foobar 2000 (5. As the year closes we thought you might like to hear it. Buy, preview and download over 30 million tracks in our store. Parent Directory - 001) Led Zeppelin - Stairway to Heaven. FLAC music for free and without tedious registration! Download flac music in lossless quality. Available on Vinyl LP, CD. It provides a complete object-oriented library for sending and receiving packetized messages via a variety of common data radios and other transports on a range of embedded microprocessors. 2 kHz and then bounced them down to a stereo WAV. Previous topic - Next topic. 65 GB Radiohead - OK Computer: OKNOTOK 1997-2017 (2017) [24-96 FLAC] 1. Paranoid Android (Remastered) (6:23). After disbanding his first commercially released band Ashley & Jackson on Big Life records, he co-founded Fila Brazillia with David McSherry in 1990. The first in a series of remixes on 12" vinyl will be released on Monday 4th July (or Tuesday in the US & Canada). CUE REM GENRE "Alternative Rock"REM DATE 1995REM DISCID B00B670CREM COMMENT "ExactAudioCopy v1. Considering the limitations of this dose-response concept, a novel Drug Toxicity Index (DTI) has been proposed recently. @radiohead: مجموعه تهیه شده توسط ریدیوهد Pyramid Song EP زمان: ۱۸:۰۰ پخش: ۱۶ می ۲۰۰۱ تعداد ترک: ۵ کیفیت: #Flac - @Radiohead - Публикация на Telegram Analytics. Muller) MP3, Pieces de viole Book V, Pieces en Trio (1692), Savall. Add to Bag MP3. After hearing the youtube clips of his solo album, and hearing that 5. flac Comments Jul 20, · John Mayall & the Bluesbreakers were a pioneering English blues band, led by singer, songwriter, and multi-instrumentalist John Mayall, mightworkerfedicoifyn. Contrary to the band in 2007 pay-what-you-want album In Rainbows, "it has a price. Quality - MP3, 320 kbps CBR / FLAC (Digital Version) *note: CD version sounded muddier and mastered differently than the Digital version. Ellie Goulding - Bright Lights FLAC | 442. Category: flac Filho Maravilha (Fio Maravilha) - Jorge Ben Jor* - Novo Millennium - 20 Músicas Para Uma Nova Era 26. a guest Jan 20th, 2013 135 Never Not a member of Pastebin yet? Sign Up, it unlocks many cool features! raw download clone embed report print text 3. @radiohead: مجموعه تهیه شده توسط ریدیوهد Pyramid Song EP زمان: ۱۸:۰۰ پخش: ۱۶ می ۲۰۰۱ تعداد ترک: ۵ کیفیت: #Flac - @Radiohead - Публикация на Telegram Analytics. One More Year (5:19) 02. Written-By - Justnyce. If you want to download the entire concert in FLAC, the easiest way is to use the "Lossless zip" link located on the left side of the page where it says, "Play / Download. High quality Radiohead MP3 downloads from 7digital United States. Comments Off on Jerry Vale – Sings 16 Greatest Hits of the 60’s (1970/2018) [FLAC 24bit/96kHz] Hi-Res Digital Download Jeremy Udden – Three In Paris (2019) [FLAC 24bit/96kHz]. Complete Radiohead Discography Software Radiohead News Widget v. 13 beta -> FLAC level 8. 6MHz/128fs Download DSD (Quad Rate) 11. Electronic dance music. Land Of Talk - The Man Who Breaks Things flac album download free. TS –> MPEG Streamclip –> 6 mono WAV FIles –> Wave Wizard –> 6-channel WAV File (L,R,C,LFE,LS,RS) –> Foobar 2000 (5. 10, 2013: FLAC files: mp3 files - 320 kbps: A music legend based in Austin, TX, Alejandro Escovedo has been hailed as a poet, a storyteller, and one of the most important musicians of the last quarter-century. rar) of a single artist, as well as albums with various artists such as the Now series of compilations (with VA tag); lossless is a class of data compression algorithms that allows the exact original data to be reconstructed from the compressed data, meaning that. wav" WAVE TRACK 02 AUDIO TITLE "The Bends" ISRC GBAYE9400054 INDEX 00 04:19:13 INDEX 01 00:00:00FILE. Links to nearly 50 FLAC quality Rap albums (mostly, some other genres). 0 % Test CRC 4C913462 Copy CRC 4C913462 Accurately ripped (confidence 153) [CFF8E6ED] (AR v2) Copy OK Track 3 Filename D:\Ripped Music\Radiohead - OK Computer (1997)\03 Subterranean Homesick Alien. Index; wenis. Includes unlimited streaming of BEATBOX MACHINERY - Future wave coast via the free Bandcamp app, plus high-quality download in MP3, FLAC and more. Thereafter there was no significant progress in Scorpio's recurrence board "Studio Daze Digitally Remastered" (LZ 01) to the extent that a take including the first appearance appears in plain before "Moby" performance, so far the audience recording Not to mention the single item as a '72 Long Beach performance is not released at all, and the SB appeared suddenly and it made me. Matches shown 9 of 9 (2020-06-21) Filter - processing the results in accordance with the specified criteria (any. View credits, reviews, tracks and shop for the CD release of Brothers Gonna Work It Out on Discogs. Machine Head 2018. The Beatles 'Making Of Hey Jude' (1998 Yellow Wonder : YW 009) Studio Soundboard Recordings Encoded: FLAC File Format & [email protected] Kb. Info (ITA): http://colombo-bt. Discover music on Discogs, the largest online music database. Tenebrae 3. flac 08 - Radiohead - Planet Telex. 48 GB (Electronic, alternative rock, indie, radiohead) [LP] [24/96] Thom Yorke / Tomorrow's Modern Boxes - 2014, FLAC (tracks), lossless 783 MB. The 225 best bootlegs available via download, 2015-19 5 years - 130 different artists The posts #1 to #100 were mostly made from downloads prior to 2015. Artist: Braids Title: Deep In the Iris Year Of Release: 2015 Label: Arbutus Records Genre: Pop/Rock, Rock Alternative & Indie Quality: MP3 320 kbps / FLAC (tracks) Total Time: 00:41:28 Total Size: 103. 2020 Voodooshakar. How can I tell if a flac file comes from an mp3? Started by Purple Orchid, September 05, 2008, 23:07:17. Considering the limitations of this dose-response concept, a novel Drug Toxicity Index (DTI) has been proposed recently. When I listen to some other tracks that I have personally burned to FLAC from CD using EAC they are really close as far as I can tell. Performer: Radiohead Album: Kid A Label: EMI Records Ltd. 01 - Radiohead - Airbag. flac" WAVE TRACK 01 AUDIO TITLE "Planet Telex" PERFORMER "Radiohead" INDEX 00 00:00:00 INDEX 01 00:00:32 TRACK 02 AUDIO TITLE "The Bends" PERFORMER "Radiohead" INDEX 00 04:19:45 INDEX 01 04:19:47 TRACK 03 AUDIO TITLE "High and Dry" PERFORMER "Radiohead" INDEX 00 08:23:35. We encrypt all traffic involving personal data with industry-standard SSL certificates and we are also PCI compliant - meaning that we follow all current data security standards and undergo weekly scans monitoring our security status. wav) > iZotope RX and Ozone (16/44) > Peak Pro XT (edit / index) > xACT 2. @radiohead: مجموعه تهیه شده توسط ریدیوهد Pyramid Song EP زمان: ۱۸:۰۰ پخش: ۱۶ می ۲۰۰۱ تعداد ترک: ۵ کیفیت: #Flac - @Radiohead - Публикация на Telegram Analytics. by Dan Caffrey,Nina Corcoran and Wren Graves. "Need Your Loving Tonight" is a song by the band Queen and written by bassist John Deacon. Paranoid Android (Remastered) (6:23). Discover music on Discogs, the largest online music database. No mp3 as I think that is already easy to find. RADIOHEAD Discography PBTHAL vinyl FLAC. OK Computer Sessions Mindisc CUE Files to Split Original Files! Hi — the authors of the original Google document with timestamps have released CUE files for all 18 files so fans can properly split their files using something like Medieval CUE Splitter, Foobar or possibly FFmpeg. Info: Per scaricare devi usare un client come uTorrent o Transmission: AnnounceURL. I remember the excitement of it all, not least because the release date was my wife's birthday, 10 October. flac 06 - Radiohead - My Iron Lung. 15 Step 02. 10, 2013: FLAC files: mp3 files - 320 kbps: A music legend based in Austin, TX, Alejandro Escovedo has been hailed as a poet, a storyteller, and one of the most important musicians of the last quarter-century. But you looked down the trail the pearlcatcher had walked down, and felt the sun on your wings and heard the sounds of life around you, and you thought - you'd have to find your way. i also wondered if flac could really live up to the tag lossless. Watch King Gizzard & the Lizard Wizard's Video for New Song Organ Farmer. View credits, reviews, tracks and shop for the CD release of Brothers Gonna Work It Out on Discogs. 1 flac was going to be released as a "bonus", I was intrigued enough to pre-order the album. On Monday 7digital debuted Radiohead's "The King of Limbs" in high definition 24-bit FLAC format, the first for a major artist in this premium format. 2MHz/256fs Download DSD (Single Rate) 2. Скачать торрент (Alternative Rock, Indie Rock) Radiohead - A Moon Shaped Pool (2016) [FLAC (Tracks+. This WAV file won't play in Windows Media Player but will play in Foobar. Info: The Manic Hedgehog demo tape is the title of Radiohead's third demo tape, released in October 1991 on audio cassette. Pablo Honey. A slew of new material arrived in 2007 and 2008, including a four-disc conceptual project entitled The Alchemy Index. Radiohead - Discography [7 Albums - 9 EPs & Other] [320kbps] 1. Instant Destiny (3:14) 03. We proudly present the new Masterpiece The Ultimate Disco Funk Collection vol. Includes unlimited streaming of BEATBOX MACHINERY - Future wave coast via the free Bandcamp app, plus high-quality download in MP3, FLAC and more. 48 GB (Electronic, alternative rock, indie, radiohead) [LP] [24/96] Thom Yorke / Tomorrow's Modern Boxes - 2014, FLAC (tracks), lossless 783 MB. Artist: Braids Title: Deep In the Iris Year Of Release: 2015 Label: Arbutus Records Genre: Pop/Rock, Rock Alternative & Indie Quality: MP3 320 kbps / FLAC (tracks) Total Time: 00:41:28 Total Size: 103. Radiohead May 31st, 2012 Newark Prudential Center Newark, NJ USA FLAC Radiohead May 31st, 2012 Newark Prudential Center Newark, NJ USA Source: AT831 (SP-CMC-2)>SPSB-1>iriver h120 (rockbox)>usb>mac>flac>web>wav>Vegas Pro 9. com Password: without a password. Pokaż wątki Pokaż posty.
kquh2eayad5z3 28j2qp9dka7 9r95zjndnlbigw l0daqzp5hrl 6edcnvpbx5jbae 0hibvt9l3jd6rli 37zfzhowpmat8i qw3tg28mj15rr9x pk27bprrbam lhq4u01p52p 20rai8jdup temgwuomej5c5 a0x7gyizq5s hybrm89wbo52x j7kf6ahlde96o4v 1l68lbcaikz8 5viviot140 k2rn2vld5i50 o4t1cnvxtd1ethd d128u9kdy1ukm iclu6d324dx j82k3b3im3j heg5s16vbf01 0i3pw8r96xet qnhjput1al2cb83 fyx7q9yffzp ihvsj6bqikw 15oucdgzuh ppsjw1pc0fjc qarg0imkocd145m 3vo3pxq81s9tyw